Nymphomaniac 2013 Volume I & II UNRATED WEBRip XviD MP3-RARBG

Removed by the request of copyright owner, 4 months ago
Added on Mar 6, 2014 by TryMeS500555 in Movies
Torrent verified. Downloaded 146,239 times.

Available in versions: 1080p720pHDRiPDVDRip
Nymphomaniac 2013 Volume I & II UNRATED WEBRip XviD MP3-RARBG (Size: 1.7 GB)
  Nymphomaniac 2013 Volume I UNRATED WEBRip XviD MP3-RARBG.avi 952.71 MB
  Nymphomaniac 2013 Volume II UNRATED WEBRip XviD MP3-RARBG.avi 791.03 MB
  Nymphomaniac 2013 Volume I & II UNRATED WEBRip XviD MP3-RARBG.nfo 4.4 KB
  rarbg.com.txt 34 bytes

Description

Nymphomaniac 2013 Volume I & II UNRATED WEBRip XviD MP3-RARBG

image

Title: Nymphomaniac: Volume 1 (2013)
Genres: Drama
Actors: Charlotte Gainsbourg , Stellan Skarsgård , Stacy Martin , Shia LaBeouf , Christian Slater , Jamie Bell , Uma Thurman , Willem Dafoe , Mia Goth , Sophie Kennedy Clark , Connie Nielsen , Michael Pas , Jean-Marc Barr , Udo Kier , Kate Ashfield
Runtime: 330
Year: 2013
Plot:
A self-diagnosed nymphomaniac recounts her erotic experiences to the man who saved her after a beating.

Nymphomaniac 2013 Volume I & II UNRATED WEBRip XviD MP3-RARBG

http://imdb.com/title/tt1937390/

image

Nymphomaniac 2013 Volume I UNRATED WEBRip XviD MP3-RARBG

Info:
Format : AVI
Format/Info : Audio Video Interleave
File size : 953 MiB
Duration : 1h 50mn
Overall bit rate : 1 205 Kbps
Movie name : Downloaded from RARBG.COM
Writing application : Lavf55.22.103
Comment : Downloaded from RARBG.COM

Video
ID : 0
Format : xvid
Codec ID : xvid
Duration : 1h 50mn
Bit rate : 1 000 Kbps
Width : 720 pixels
Height : 304 pixels
Display aspect ratio : 2.35:1
Frame rate : 25.000 fps
Bits/(Pixel*Frame) : 0.183
Stream size : 791 MiB (83%)

Audio
ID : 1
Format : MPEG Audio
Format version : Version 1
Format profile : Layer 3
Mode : Joint stereo
Codec ID : 55
Codec ID/Hint : MP3
Duration : 1h 50mn
Bit rate mode : Constant
Bit rate : 192 Kbps
Channel(s) : 2 channels
Sampling rate : 44.1 KHz
Compression mode : Lossy
Stream size : 152 MiB (16%)
Alignment : Aligned on interleaves
Interleave, duration : 26 ms (0.65 video frame)


Nymphomaniac 2013 Volume II UNRATED WEBRip XviD MP3-RARBG

Info:
Format : AVI
Format/Info : Audio Video Interleave
File size : 791 MiB
Duration : 1h 58mn
Overall bit rate : 935 Kbps
Movie name : Downloaded from RARBG.COM
Writing application : Lavf55.22.103
Comment : Downloaded from RARBG.COM

Video
ID : 0
Format : xvid
Codec ID : xvid
Duration : 1h 58mn
Bit rate : 730 Kbps
Width : 608 pixels
Height : 256 pixels
Display aspect ratio : 2.40:1
Frame rate : 25.000 fps
Bits/(Pixel*Frame) : 0.188
Stream size : 618 MiB (78%)

Audio
ID : 1
Format : MPEG Audio
Format version : Version 1
Format profile : Layer 3
Mode : Joint stereo
Codec ID : 55
Codec ID/Hint : MP3
Duration : 1h 58mn
Bit rate mode : Constant
Bit rate : 192 Kbps
Channel(s) : 2 channels
Sampling rate : 44.1 KHz
Compression mode : Lossy
Stream size : 162 MiB (21%)
Alignment : Aligned on interleaves
Interleave, duration : 26 ms (0.65 video frame)


Screens:
image
image
image
image




Notes:
Greetz to everyone :)

Related Torrents

torrent name size files age seed leech

Trackers

tracker name Status checked seeders leechers downloads
udp://9.rarbg.com:2710/announce
outdated 13 Mar 2014 - - -
udp://9.rarbg.me:2710/announce
outdated 13 Mar 2014 - - -
udp://tracker.publicbt.com:80/announce
outdated 13 Mar 2014 - - -
udp://tracker.istole.it:80/announce
outdated 13 Mar 2014 - - -
udp://tracker.openbittorrent.com:80/announce
outdated 13 Mar 2014 - - -
http://tracker.trackerfix.com/announce
deleted 13 Mar 2014 - - -
udp://10.rarbg.me:80/announce
pending 13 Mar 2014 5801 1527 10
udp://11.rarbg.me:80/announce
pending 13 Mar 2014 5835 1527 10
udp://12.rarbg.me:80/announce
pending 13 Mar 2014 7700 2074 10
µTorrent compatible trackers list

Locations

name
Torrent hash: BB5147935550A19E5E4A448AA76D29E0BF419418

Top Comments

29
anonymous • 07 Mar 2014, 00:56
audio: 8video: 8
it's not porn - grow up kids - it's to movies what NYPD Blue was to tv back in the 90's. people are sexual beings - europeans understand this - americans seems ashamed of it. probably due to religion who knows - anyways movie is good if you're an adult. V=8 A=8 M=8
18
specialkrp1226 • 07 Mar 2014, 01:54
audio: 8video: 8
Its Lars Von Trier's new film guys, so who cares if its too adult for some of you out there. All of his films are very mature in nature. This one happens too be the third part of his human sorrow trilogy, and is very sexually explicit. But I am sure it will be great.
11
anonymous • 07 Mar 2014, 08:14
Hırsız Var Hırsızzzz!!!

All Comments

audio
7/10
video
7/10
please, leave only comments related to that torrent
or sign-in
0
MahakianX6398 • 18 March 2014, 07:49
torrent downloaded
Show comment
audio: 7video: 7
0
koolmad55436 • 18 March 2014, 02:21
torrent downloaded
Show comment
audio: 6video: 6
0
PuffyTaco1480 • 17 March 2014, 22:59
torrent downloaded
Show comment
audio: 9video: 9
thanks
0
Mila2250 • 13 March 2014, 14:50
torrent downloaded
Show comment
audio: 8video: 8
Good movies; gritty and out of the box. Good print too, thanks!
0
Filip281230 • 13 March 2014, 14:17
torrent downloaded
Show comment
audio: 8video: 8
0
stefaniaboian3 • 13 March 2014, 11:39
torrent downloaded
Show comment
audio: 9video: 10
good movie, less "porn" than anyone might think or say.
0
yoikodomo85 • 13 March 2014, 11:11
torrent downloaded
Show comment
Thanks!
0
SauronTDL184 • 13 March 2014, 10:07
torrent downloaded
Show comment
audio: 8video: 8
good quality, good movie but a little bit too much for anomalies
0
akshattyagi186 • 13 March 2014, 07:22
torrent downloaded
Show comment
audio: 9video: 9
Great print and nice movie Thanks
0
YazeeR1405 • 13 March 2014, 06:08
torrent downloaded
Show comment
audio: 8video: 8
Show More

User Opinions

q8djent5027, speedtriplll1705, Yellowbirdie1298, erray125982, supermate873, cladoceran829, jonh574, ViwwiV325, bidrohipothik162, lee.liedy1111 ... And 1160 more
angger3601, Aasif_Rules1030, UFOludek8787426, DrCosmo378, BenW359, izobeast346, yasminmedeiros274, SPARKY80138, technobreed113, marseoner21 ... And 93 more
Report a bug